#TITLE:Triple Baka;
#SUBTITLE:;
#ARTIST:Hatsune Miku, Akita Neru & Kasane Teto;
#TITLETRANSLIT:;
#SUBTITLETRANSLIT:;
#ARTISTTRANSLIT:;
#CREDIT:;
#BANNER:Hatsune Miku - Triple Baka-banner.jpg;
#BACKGROUND:Hatsune Miku - Triple Baka-bg.jpg;
#LYRICSPATH:Hatsune Miku - Triple Baka(feat Akita Neru & Kasane Teto).lrc;
#CDTITLE:CDTitle.png;
#MUSIC:Hatsune Miku - Triple Baka(feat Akita Neru & Kasane Teto).ogg;
#OFFSET:0.180;
#SAMPLESTART:49.480;
#SAMPLELENGTH:12.000;
#SELECTABLE:YES;
#BPMS:0.000=180.000;
#STOPS:;
#BGCHANGES:;
// cache tags:
#FIRSTBEAT:5.000;
#LASTBEAT:265.000;
#SONGFILENAME:songs/Vocaloid Party/Hatsune Miku - Triple Baka(feat. Akita Neru & Kasane Teto)/Hatsune Miku - Triple Baka(feat. Akita Neru & Kasane Teto).sm;
#HASMUSIC:1;
#HASBANNER:1;
#MUSICLENGTH:91.858;
// end cache tags

//---------------dance-single - ----------------
#NOTES:
     dance-single:
     :
     Challenge:
     10:
     0.871,0.923,0.729,0.708,0.234,428.000,67.000,65.000,52.000,2.000:

0000
0000
0000
0000
,
0000
0000
0000
0000
0010
0100
0001
0000
1000
0000
0001
0000
0010
0100
1000
0000
,
0001
0000
1000
0000
0010
0100
0001
0000
1000
0000
0001
0000
0010
0100
1000
0000
,
0001
0000
1000
0000
1000
0001
0100
0000
0010
0100
0010
0000
0100
0001
0010
0000
,
0100
1000
0100
0000
1000
0100
0010
0100
0010
0001
0100
0000
0110
0000
1010
0000
,
0001
0010
0100
1000
0020
0000
M000
0000
1000
0000
0000
0000
0000
0000
0M00
0000
,
0100
0000
0230
000M
0001
032M
0000
0000
,
2030
0000
3020
0M00
0100
0000
0000
M000
,
1000
0000
0000
0000
0030
0000
2000
0000
3200
0000
0320
0000
0032
0010
0203
0010
,
0302
0003
0110
0000
2000
0000
0M00
0000
0100
0000
0000
0000
0000
0000
000M
0000
,
0001
0000
3200
00M0
0010
03M2
0000
0000
,
0023
0000
0230
M000
1000
0000
0000
000M
,
0001
0000
0000
0000
0300
0000
0020
0000
0032
0000
0203
0000
0320
1000
0130
0010
,
0200
0300
1010
0000
0000
0000
0010
0000
0010
0000
1000
0000
0010
0000
0100
0000
,
0001
0010
0002
0000
1003
0010
1000
0001
,
0000
0110
0000
0100
M022
0M00
M000
0M00
,
1000
0033
0000
0010
0001
1000
0110
0110
,
0010
0100
0001
0000
0200
0000
0000
0000
0310
0000
0000
0000
0110
0000
0000
0000
,
1010
0000
0101
0000
1001
0100
0010
0001
,
0100
0010
1000
0010
0100
0001
1000
0010
,
1000
0000
0100
0000
0010
0001
0010
0001
0010
0100
0010
0100
0010
0001
0010
0100
,
0020
0100
0030
1000
0100
0010
0100
0010
,
0001
0010
0100
0010
0001
0100
0010
1000
,
0000
0110
0000
0001
22M0
000M
00M0
000M
,
0001
3300
0000
0010
0001
0010
1100
1100
,
0100
1000
0001
0000
0002
0000
0000
0000
0103
0000
0000
0000
0010
0000
0100
0000
,
0010
0100
0001
0010
0001
1000
0010
0200
,
0000
0300
0000
0010
1000
0001
1000
0100
,
0010
0001
1000
0000
0010
0110
0000
1010
,
1010
0000
0001
0010
0100
0000
1000
0000
0100
0000
1000
0000
0010
0000
1000
0000
,
0100
0010
0001
0100
0001
1000
0000
1002
,
M000
1000
M103
0020
0000
1030
0001
0100
,
0001
1000
0010
0100
0001
0100
0000
0120
,
0M30
0210
03M1
0100
0001
0010
0100
1000
,
0100
1000
0010
0100
0010
1000
0000
0101
,
0M0M
0101
0M1M
1000
0100
1000
0100
0010
,
0001
0000
1000
0010
0100
0000
0100
0001
0010
0000
0011
0000
0000
0000
0101
0000
,
0101
0000
M110
M001
M110
M001
M110
M001
,
0000
1000
0020
0000
0000
0130
0010
1000
,
0001
1000
0200
0000
0302
0000
0203
0000
,
0310
0000
0001
0000
0002
0000
0000
0000
0003
0000
0000
0010
0200
0000
0000
0000
,
0000
0000
0000
0300
0011
0000
0000
0000
0100
0000
0000
0000
1100
0000
0000
0000
,
0010
0100
0010
1000
0100
0000
0000
0000
1000
0000
0010
0000
0101
0000
0000
0000
,
0011
0000
0200
0000
0000
0310
0200
1000
,
0010
1000
0301
1000
0001
0010
0100
1100
,
0110
0000
0100
1000
01M0
0000
00M1
0000
11M0
0000
00M1
0000
11M0
0000
00M1
0000
,
0000
0100
0002
0000
0003
1000
0100
0010
,
0001
0100
0020
0000
2030
0000
3020
0000
,
0130
0000
0001
0000
0020
0000
0000
0000
0030
0000
0000
0001
0200
0000
0000
0000
,
0000
0000
0000
0300
0011
0000
0000
0000
0001
0000
0000
0000
1010
0000
0000
0000
,
0100
0000
0010
0000
1000
0100
1000
0010
0100
0000
0100
0000
0101
0000
0000
0000
,
1000
0000
0110
0000
0000
0100
0002
1000
,
0010
1000
0103
0010
1000
0100
0010
0011
,
0011
0000
0100
1000
0100
0000
0010
0001
0010
0000
0100
0010
0100
0000
1000
0001
,
1000
0000
0010
0000
0000
0000
0100
0010
0100
0000
0001
0000
1000
0000
0100
0000
,
0010
0000
0010
0100
2000
0000
0000
0000
0010
0000
00M1
0000
0000
0000
0010
0000
,
00M1
3000
2010
0000
3001
210M
0000
3001
,
210M
3000
2010
0000
0100
0M10
0000
0100
,
0M10
3000
2000
3001
2001
3001
2001
3001
,
1100
1010
1002
0000
0010
10M0
0000
0010
,
10M0
0003
0102
0000
0103
0M12
0000
0103
,
0M12
0003
0102
0000
1000
M100
0000
1000
,
M100
0003
1002
1003
0102
0103
0012
0013
,
0101
0000
1001
0000
0000
0000
0100
0010
1000
0000
0100
0000
0110
0000
1000
0000
,
0110
0000
1000
0000
0000
0000
0001
1000
0100
0000
0010
0000
1100
0000
0010
0000
,
1100
0010
0110
0000
0000
0000
0000
0000
;

//---------------dance-single - ----------------
#NOTES:
     dance-single:
     :
     Hard:
     9:
     0.743,0.757,0.250,0.642,0.060,396.000,23.000,59.000,0.000,0.000:
0000
0000
0000
0000
,
0000
0000
1000
0100
0100
1000
0200
0000
,
0310
0000
0001
0100
0100
0010
0200
0000
,
0310
0000
1000
0010
0100
0010
1000
0010
,
0100
0000
0010
0000
1000
0001
1000
0000
0001
1000
0001
0000
0100
0000
0001
0000
,
0100
0010
0100
0000
2010
0000
0000
0000
3001
0000
0100
0000
0010
0000
1000
0000
,
0100
0000
0000
0000
1000
0001
0010
0000
0001
0000
0100
0000
0010
0000
0100
0000
,
0010
0000
0000
0000
0100
0001
0010
0000
0100
0000
0010
0000
0001
0000
0010
0000
,
0001
0000
0010
0100
0010
0001
1000
0100
,
0010
0001
0102
0000
1003
0100
0010
0100
,
1000
0000
0000
0000
0001
0010
0100
0000
0010
0000
0001
0000
0010
0000
0100
0000
,
1000
0000
0000
0000
1000
0100
0010
0000
0100
0000
1000
0000
0100
0000
0010
0000
,
0001
0000
0100
0001
1000
0100
1000
0100
,
0010
0100
0000
0010
0001
1000
0010
0100
,
0001
1000
0100
0000
1000
0010
1000
0001
,
0000
0200
0000
0301
1000
0000
0001
0010
,
0000
0110
0000
0100
1000
0100
0010
0100
,
1000
0001
0200
0000
0301
0000
0020
0000
,
0130
0000
2000
0000
3010
0100
0001
0010
,
0100
1000
0010
0000
0100
0001
0000
0001
,
0100
0000
0000
0000
0020
0000
0100
0030
0020
0000
1000
0030
0020
0000
0100
0030
,
0020
0000
0030
1000
0100
0010
0002
0000
,
0103
0010
1000
0001
0100
0001
0010
0100
,
0000
0020
0000
0031
1000
0000
0001
1000
,
0000
1100
0000
0010
0001
0010
0100
1000
,
0010
0200
0002
0000
0303
0000
0010
0010
,
0001
0100
0001
0001
1000
0010
1000
0010
,
0000
0000
0000
0100
0010
1000
0100
1000
,
0200
0000
0020
0300
0031
0101
0000
0100
,
0110
0000
0000
1000
0010
0100
0001
0010
,
0001
0100
0010
0100
0001
2000
0010
3010
,
0000
0110
0000
0002
0000
1003
0100
0010
,
0200
0000
0310
0001
1000
0002
0100
0103
,
0000
0101
0000
0001
0010
0001
0100
0010
,
2000
0000
3001
0100
0010
0200
0001
0301
,
0000
1100
0000
1000
0010
0000
0100
0001
,
0010
0100
0010
0000
0001
0001
0000
2000
,
3010
0000
1000
0010
1000
0010
1000
0010
,
0000
0000
0020
0000
2000
0000
0000
0000
0000
0030
0200
3000
0020
0300
0002
0030
,
0200
0003
0020
0300
0200
0000
0030
0000
0002
0000
0300
0000
2000
0000
0000
0003
,
0020
3000
0200
0030
0002
0000
0300
0000
1000
0000
0000
0000
0200
0000
0000
0000
,
0000
0303
0110
0000
1001
0000
0011
0000
,
0100
0010
0100
0010
1000
0000
1100
0000
,
1010
0000
0101
0000
0000
0010
1000
0000
,
0000
0000
0000
1000
0100
0010
0100
1000
,
0000
0000
0001
0100
0001
0100
0001
0100
,
0000
0000
0020
0000
0200
0000
0000
0000
0030
0000
0002
0300
2000
0003
0200
3000
,
0020
0300
0002
0030
2000
0000
0000
0003
0020
0000
0000
3000
0200
0000
0000
0030
,
0002
0300
2000
0003
0020
0000
0000
3000
0100
0000
0000
0000
2000
0000
0000
0000
,
0000
3030
1100
0000
0101
0000
1001
0000
,
0100
0001
0100
0010
1000
0000
1100
0000
,
0011
0000
0101
0000
0000
0100
0010
0000
,
0000
0000
0000
1000
0001
1000
0100
0010
,
0000
0000
0000
0100
1000
0100
0010
0001
,
1000
0020
0000
0000
0000
0130
0001
1000
,
0001
0000
2010
0000
3100
0001
0010
0100
,
1000
0000
0000
0000
0010
1000
0100
0000
0010
0000
0001
0000
0100
0000
0010
0000
,
1000
0000
0000
0000
0100
0010
0001
0000
0100
0000
0001
0000
1000
0000
0010
0000
,
0100
0000
0000
0001
0020
0000
0031
0100
,
0010
1000
2010
0000
3010
0100
0001
0100
,
0010
0000
0000
0000
0100
0001
0100
0000
0001
0000
1000
0000
0010
0000
0100
0000
,
0010
0000
0000
0000
1000
0001
1000
0000
0010
0000
1000
0000
0010
0000
1000
0000
,
0100
0000
0000
0010
0002
0000
0103
0010
,
1000
0100
0000
1000
0010
0100
0001
0001
,
0001
0010
0000
0010
0100
1000
0010
0010
,
0010
0100
0002
0000
0000
0000
0000
0000
,
0000
0003
0000
0000
;

//---------------dance-single - ----------------
#NOTES:
     dance-single:
     :
     Beginner:
     1:
     0.100,0.107,0.022,0.000,0.000,62.000,2.000,0.000,0.000,0.000:
0000
0000
0000
0000
,
0000
0000
0000
0000
,
0000
0000
0000
0000
,
0000
0000
0000
0000
,
0000
0000
0000
0000
,
0000
0001
0000
0000
,
0000
0100
0000
0010
,
0000
0010
0000
0000
,
0000
0000
0000
0000
,
0000
0100
0000
0000
,
0000
0001
0000
0001
,
0000
1000
0000
0000
,
0000
0000
0000
0000
,
0001
0000
0000
0000
,
0000
1000
0000
0000
,
0000
0010
0000
0000
,
0000
0100
0000
0000
,
0000
0001
0000
0000
,
0000
0100
0000
0000
,
0000
0010
0000
0000
,
0000
1000
0000
1000
,
0000
1000
0000
0000
,
0000
0001
0000
0000
,
0000
0010
0000
0000
,
0000
0100
0000
0000
,
0000
1000
0000
0000
,
0000
0001
0000
0000
,
0000
0100
0000
0000
,
0000
0001
0000
0000
,
0000
1000
0000
0000
,
0000
0100
0000
0000
,
0000
1000
0000
0000
,
0000
0010
0000
0000
,
0000
1000
0000
0000
,
0000
0001
0000
0000
,
0000
0100
0000
0000
,
0000
0010
0000
0000
,
0000
0010
0000
0000
,
0000
1000
0000
0000
,
0000
0010
0000
0000
,
0000
0100
0000
0000
,
0000
0010
0000
0000
,
0000
0100
0000
0100
,
0000
0100
0000
0000
,
0000
0001
0000
0000
,
0000
0010
0000
0000
,
0000
0001
0000
0000
,
0000
1000
0000
0000
,
0000
0100
0000
0000
,
0000
1000
0000
0000
,
0000
0010
0000
0010
,
0000
0010
0000
0000
,
0000
0100
0000
0000
,
0000
0001
0000
0000
,
0000
0100
0000
0000
,
0000
1001
0000
0000
,
0000
1000
0000
0000
,
0000
0001
0000
0000
,
0000
0100
0000
0000
,
0000
0010
0000
0000
,
0000
0100
0000
0000
,
0000
0010
0000
0000
,
0000
1000
0000
0000
,
0000
0000
0000
0000
,
0000
0000
0000
0000
,
0000
0110
0000
0000
;

//---------------dance-single - ----------------
#NOTES:
     dance-single:
     :
     Easy:
     4:
     0.272,0.355,0.065,0.337,0.000,138.000,6.000,31.000,0.000,0.000:
0000
0000
0000
0000
,
0000
0000
0000
0000
,
0000
0000
0000
0000
,
0000
0010
0000
0010
,
0000
0010
0010
0010
,
0000
1010
0000
1000
,
0000
0000
0002
0000
0000
0100
0000
0000
,
0100
0023
0000
0100
,
0000
1030
0001
0100
,
0010
0100
0000
0010
,
0000
0000
0200
0000
0000
0001
0000
0000
,
0001
0320
0000
0001
,
0000
0130
1000
0001
,
0100
0000
0001
0000
,
0010
0000
0100
0000
,
1000
0000
0001
0000
,
0010
0000
2000
0100
,
3002
0200
0303
0010
,
0100
0010
0000
1000
,
0001
1000
0000
0000
,
0000
0020
0000
1000
,
1030
0000
0100
0000
,
1000
0000
0010
0000
,
0100
0000
0010
0000
,
1000
0000
0200
0010
,
2300
0002
3003
0100
,
0000
0001
0001
0100
,
0000
0000
0001
0000
,
0100
0000
0101
0000
,
1100
0000
0010
0000
,
1000
0000
0100
0000
,
0000
0000
0100
0000
,
0010
0000
0001
0000
,
0000
0000
0001
0000
,
0010
0000
0100
0000
,
0000
0000
0100
0000
,
1000
0010
0000
0000
,
0000
1000
0000
1001
,
0000
0010
0000
0100
,
0000
0010
0010
1000
,
0000
0001
0000
0010
,
0000
0002
0000
0203
,
0000
0310
0010
2000
,
0000
3002
0000
0203
,
0000
0000
0301
1000
,
0000
0010
0000
0101
,
0000
1000
0000
0001
,
0000
0100
0100
0010
,
0000
1000
0000
0010
,
0000
0200
0000
0302
,
0000
1003
1000
0020
,
0000
0230
0000
0302
,
0000
0000
1003
0010
,
0000
0000
0100
0000
,
0001
0000
0100
0000
,
0000
0012
0000
0000
,
0000
0000
2003
0000
0000
3002
0000
0000
,
2003
3020
0000
0000
,
0000
0000
1030
0100
,
0010
0200
0000
0000
,
0000
0000
0320
0000
0000
0230
0000
0000
,
0320
0032
0000
0000
,
0000
0000
1003
0010
,
1000
0000
0001
0010
,
0001
0000
0100
0010
,
0100
0001
0000
0000
;

//---------------dance-single - ----------------
#NOTES:
     dance-single:
     :
     Medium:
     6:
     0.407,0.533,0.163,0.120,0.011,236.000,15.000,11.000,2.000,0.000:
0000
0000
0000
0000
,
0000
0000
0000
0000
,
0000
0000
0000
0000
,
0000
0000
1000
0000
0000
0001
0100
0000
,
0000
0001
0010
0000
0001
0000
0100
0001
,
0100
0001
0101
0000
,
0100
0010
0110
0000
,
0100
1000
1100
0000
,
0110
0000
0000
0001
0100
0000
0010
0100
,
0001
1000
1001
0000
,
0001
0100
0101
0000
,
0001
0010
0011
0000
,
1100
0000
0000
0100
1000
0000
0001
1000
,
0001
1000
0000
1000
0010
0000
0100
0000
,
0010
0000
1000
0000
0100
0000
0010
0001
,
0100
0020
1030
0010
,
0100
0000
0001
0000
0010
0000
0001
0100
,
0010
1000
0010
2000
,
3200
0000
0320
0030
0100
0010
0100
0000
,
1000
0010
1000
0000
0100
0010
0001
0010
,
0100
1000
0100
0010
,
0001
0000
0010
0100
,
0010
0000
0001
0000
0010
0000
0001
1000
,
0100
0020
0031
1000
,
0100
0000
1000
0000
0010
0000
1000
0001
,
0100
0010
1000
0101
,
0110
0000
0001
1000
0001
0000
1001
0000
,
0000
0000
0000
0100
0010
0000
1000
0001
,
0100
0000
0101
0000
0100
0010
0000
0010
,
0100
0000
0000
0001
1000
0000
0010
1000
,
0010
0000
0100
0010
0100
0010
0000
2000
,
0000
3010
0000
0100
0000
0001
0100
0000
,
0010
1000
0001
0000
0100
0001
0000
0020
,
0000
0031
0000
1000
0100
0000
1000
0100
,
0010
0000
0001
1000
0010
1000
0000
0002
,
0000
0103
0000
0001
1000
0000
0001
1000
,
0100
0000
0020
0000
0000
0000
0000
0031
,
1000
0010
0100
0001
,
0000
0100
0000
0001
,
1000
0010
0000
1000
,
0000
0001
0000
0100
,
0000
0001
0010
0001
,
0100
1000
0010
0000
0000
0000
0001
0000
,
1000
0010
0000
0100
,
0000
0000
0001
0010
,
0000
0100
1000
0001
,
0000
1000
0000
0010
,
0100
0001
0000
1000
,
0000
0010
0000
1000
,
0000
0100
0010
0001
,
0010
0000
0100
1000
0100
0000
0010
0000
,
0001
0100
0000
0010
,
0000
0000
1000
0001
,
0000
0100
0000
0001
,
0000
1000
0000
0010
,
0100
1020
1000
0000
,
1000
0000
1000
0000
,
1000
0000
1000
0000
,
1000
0000
0000
0000
0030
0000
0100
00M0
1000
0000
0000
0000
0001
0000
0100
0000
,
0010
0120
0100
0000
,
0100
0000
0100
0000
,
0100
0000
0100
0000
,
0100
0000
0000
0000
0030
0000
0001
00M0
1000
0000
0000
0000
0100
0000
1000
0000
,
0010
0000
0000
0100
0001
0000
0100
0010
,
0100
0000
0000
0010
1000
0000
0010
0100
,
0010
1001
0000
0000
;
